  0
SECTION
  2
HEADER
  9
$ACADVER
  1
AC1015
  9
$ACADMAINTVER
 70
     6
  9
$DWGCODEPAGE
  3
ANSI_1252
  9
$INSBASE
 10
0.0
 20
0.0
 30
0.0
  9
$EXTMIN
 10
0.0
 20
0.0
 30
0.0
  9
$EXTMAX
 10
863.6
 20
558.8
 30
0.0
  9
$LIMMIN
 10
0.0
 20
0.0
  9
$LIMMAX
 10
863.6
 20
558.8
  9
$ORTHOMODE
 70
     0
  9
$REGENMODE
 70
     1
  9
$FILLMODE
 70
     1
  9
$QTEXTMODE
 70
     0
  9
$MIRRTEXT
 70
     1
  9
$LTSCALE
 40
1.0
  9
$ATTMODE
 70
     1
  9
$TEXTSIZE
 40
4.2333333333
  9
$TRACEWID
 40
1.0
  9
$TEXTSTYLE
  7
Standard
  9
$CLAYER
  8
0
  9
$CELTYPE
  6
ByLayer
  9
$CECOLOR
 62
   256
  9
$CELTSCALE
 40
1.0
  9
$DISPSILH
 70
     0
  9
$DIMSCALE
 40
1.0
  9
$DIMASZ
 40
3.0
  9
$DIMEXO
 40
1.27
  9
$DIMDLI
 40
3.75
  9
$DIMRND
 40
0.0
  9
$DIMDLE
 40
0.0
  9
$DIMEXE
 40
2.0
  9
$DIMTP
 40
0.0
  9
$DIMTM
 40
0.0
  9
$DIMTXT
 40
4.2333333333
  9
$DIMCEN
 40
2.5
  9
$DIMTSZ
 40
0.0
  9
$DIMTOL
 70
     0
  9
$DIMLIM
 70
     0
  9
$DIMTIH
 70
     1
  9
$DIMTOH
 70
     1
  9
$DIMSE1
 70
     0
  9
$DIMSE2
 70
     0
  9
$DIMTAD
 70
     0
  9
$DIMZIN
 70
     1
  9
$DIMBLK
  1

  9
$DIMASO
 70
     1
  9
$DIMSHO
 70
     1
  9
$DIMPOST
  1

  9
$DIMAPOST
  1

  9
$DIMALT
 70
     0
  9
$DIMALTD
 70
     3
  9
$DIMALTF
 40
0.0393700787
  9
$DIMLFAC
 40
1.0
  9
$DIMTOFL
 70
     1
  9
$DIMTVP
 40
0.0
  9
$DIMTIX
 70
     0
  9
$DIMSOXD
 70
     0
  9
$DIMSAH
 70
     0
  9
$DIMBLK1
  1

  9
$DIMBLK2
  1

  9
$DIMSTYLE
  2
ISO-25
  9
$DIMCLRD
 70
     0
  9
$DIMCLRE
 70
     0
  9
$DIMCLRT
 70
     0
  9
$DIMTFAC
 40
1.0
  9
$DIMGAP
 40
1.524
  9
$DIMJUST
 70
     0
  9
$DIMSD1
 70
     0
  9
$DIMSD2
 70
     0
  9
$DIMTOLJ
 70
     0
  9
$DIMTZIN
 70
     1
  9
$DIMALTZ
 70
     0
  9
$DIMALTTZ
 70
     0
  9
$DIMUPT
 70
     0
  9
$DIMDEC
 70
     2
  9
$DIMTDEC
 70
     2
  9
$DIMALTU
 70
     2
  9
$DIMALTTD
 70
     3
  9
$DIMTXSTY
  7
Standard
  9
$DIMAUNIT
 70
     0
  9
$DIMADEC
 70
     0
  9
$DIMALTRND
 40
0.0
  9
$DIMAZIN
 70
     0
  9
$DIMDSEP
 70
    44
  9
$DIMATFIT
 70
     3
  9
$DIMFRAC
 70
     0
  9
$DIMLDRBLK
  1

  9
$DIMLUNIT
 70
     2
  9
$DIMLWD
 70
    -2
  9
$DIMLWE
 70
    -2
  9
$DIMTMOVE
 70
     0
  9
$LUNITS
 70
     2
  9
$LUPREC
 70
     2
  9
$SKETCHINC
 40
1.0
  9
$FILLETRAD
 40
10.0
  9
$AUNITS
 70
     0
  9
$AUPREC
 70
     0
  9
$MENU
  1
.
  9
$ELEVATION
 40
0.0
  9
$PELEVATION
 40
0.0
  9
$THICKNESS
 40
0.0
  9
$LIMCHECK
 70
     0
  9
$CHAMFERA
 40
10.0
  9
$CHAMFERB
 40
10.0
  9
$CHAMFERC
 40
20.0
  9
$CHAMFERD
 40
0.0
  9
$SKPOLY
 70
     0
  9
$TDCREATE
 40
2457008.441031887
  9
$TDUCREATE
 40
2457008.691031887
  9
$TDUPDATE
 40
2457008.441032234
  9
$TDUUPDATE
 40
2457008.691032234
  9
$TDINDWG
 40
0.0000000116
  9
$TDUSRTIMER
 40
0.0000000116
  9
$USRTIMER
 70
     1
  9
$ANGBASE
 50
0.0
  9
$ANGDIR
 70
     0
  9
$PDMODE
 70
     0
  9
$PDSIZE
 40
-1.0
  9
$PLINEWID
 40
0.0
  9
$SPLFRAME
 70
     0
  9
$SPLINETYPE
 70
     6
  9
$SPLINESEGS
 70
     8
  9
$HANDSEED
  5
133
  9
$SURFTAB1
 70
     6
  9
$SURFTAB2
 70
     6
  9
$SURFTYPE
 70
     6
  9
$SURFU
 70
     6
  9
$SURFV
 70
     6
  9
$UCSBASE
  2

  9
$UCSNAME
  2

  9
$UCSORG
 10
0.0
 20
0.0
 30
0.0
  9
$UCSXDIR
 10
1.0
 20
0.0
 30
0.0
  9
$UCSYDIR
 10
0.0
 20
1.0
 30
0.0
  9
$UCSORTHOREF
  2

  9
$UCSORTHOVIEW
 70
     0
  9
$UCSORGTOP
 10
0.0
 20
0.0
 30
0.0
  9
$UCSORGBOTTOM
 10
0.0
 20
0.0
 30
0.0
  9
$UCSORGLEFT
 10
0.0
 20
0.0
 30
0.0
  9
$UCSORGRIGHT
 10
0.0
 20
0.0
 30
0.0
  9
$UCSORGFRONT
 10
0.0
 20
0.0
 30
0.0
  9
$UCSORGBACK
 10
0.0
 20
0.0
 30
0.0
  9
$PUCSBASE
  2

  9
$PUCSNAME
  2

  9
$PUCSORG
 10
0.0
 20
0.0
 30
0.0
  9
$PUCSXDIR
 10
1.0
 20
0.0
 30
0.0
  9
$PUCSYDIR
 10
0.0
 20
1.0
 30
0.0
  9
$PUCSORTHOREF
  2

  9
$PUCSORTHOVIEW
 70
     0
  9
$PUCSORGTOP
 10
0.0
 20
0.0
 30
0.0
  9
$PUCSORGBOTTOM
 10
0.0
 20
0.0
 30
0.0
  9
$PUCSORGLEFT
 10
0.0
 20
0.0
 30
0.0
  9
$PUCSORGRIGHT
 10
0.0
 20
0.0
 30
0.0
  9
$PUCSORGFRONT
 10
0.0
 20
0.0
 30
0.0
  9
$PUCSORGBACK
 10
0.0
 20
0.0
 30
0.0
  9
$USERI1
 70
     0
  9
$USERI2
 70
     0
  9
$USERI3
 70
     0
  9
$USERI4
 70
     0
  9
$USERI5
 70
     0
  9
$USERR1
 40
0.0
  9
$USERR2
 40
0.0
  9
$USERR3
 40
0.0
  9
$USERR4
 40
0.0
  9
$USERR5
 40
0.0
  9
$WORLDVIEW
 70
     1
  9
$SHADEDGE
 70
     3
  9
$SHADEDIF
 70
    70
  9
$TILEMODE
 70
     1
  9
$MAXACTVP
 70
    64
  9
$PINSBASE
 10
0.0
 20
0.0
 30
0.0
  9
$PLIMCHECK
 70
     0
  9
$PEXTMIN
 10
1.0000000000E+20
 20
1.0000000000E+20
 30
1.0000000000E+20
  9
$PEXTMAX
 10
-1.0000000000E+20
 20
-1.0000000000E+20
 30
-1.0000000000E+20
  9
$PLIMMIN
 10
0.0
 20
0.0
  9
$PLIMMAX
 10
420.0
 20
297.0
  9
$UNITMODE
 70
     0
  9
$VISRETAIN
 70
     1
  9
$PLINEGEN
 70
     0
  9
$PSLTSCALE
 70
     1
  9
$TREEDEPTH
 70
  3020
  9
$CMLSTYLE
  2
Standard
  9
$CMLJUST
 70
     0
  9
$CMLSCALE
 40
20.0
  9
$PROXYGRAPHICS
 70
     1
  9
$MEASUREMENT
 70
     1
  9
$CELWEIGHT
370
    -1
  9
$ENDCAPS
280
     0
  9
$JOINSTYLE
280
     0
  9
$LWDISPLAY
290
     1
  9
$INSUNITS
 70
     4
  9
$HYPERLINKBASE
  1

  9
$STYLESHEET
  1

  9
$XEDIT
290
     1
  9
$CEPSNTYPE
380
     0
  9
$PSTYLEMODE
290
     1
  9
$FINGERPRINTGUID
  2
{F46C51D4-4115-4C8A-AB35-1FA4F42AA4B4}
  9
$VERSIONGUID
  2
{FAEB1C32-E019-11D5-929B-00C0DF256EC4}
  9
$EXTNAMES
290
     1
  9
$PSVPSCALE
 40
0.0
  9
$OLESTARTUP
290
     0
  0
ENDSEC
  0
SECTION
  2
CLASSES
  0
CLASS
  1
ACDBDICTIONARYWDFLT
  2
AcDbDictionaryWithDefault
  3
ObjectDBX Classes
 90
        0
280
     0
281
     0
  0
CLASS
  1
VISUALSTYLE
  2
AcDbVisualStyle
  3
ObjectDBX Classes
 90
     4095
280
     0
281
     0
  0
CLASS
  1
MATERIAL
  2
AcDbMaterial
  3
ObjectDBX Classes
 90
     1153
280
     0
281
     0
  0
CLASS
  1
ACDBPLACEHOLDER
  2
AcDbPlaceHolder
  3
ObjectDBX Classes
 90
        0
280
     0
281
     0
  0
CLASS
  1
LAYOUT
  2
AcDbLayout
  3
ObjectDBX Classes
 90
        0
280
     0
281
     0
  0
ENDSEC
  0
SECTION
  2
TABLES
  0
TABLE
  2
VPORT
  5
8
330
0
100
AcDbSymbolTable
 70
     1
  0
VPORT
  5
29
330
8
100
AcDbSymbolTableRecord
100
AcDbViewportTableRecord
  2
*Active
 70
     0
 10
0.0
 20
0.0
 11
1.0
 21
1.0
 12
431.8
 22
279.4
 13
0.0
 23
0.0
 14
10.0
 24
10.0
 15
10.0
 25
10.0
 16
0.0
 26
0.0
 36
1.0
 17
0.0
 27
0.0
 37
0.0
 40
558.8
 41
1.5454545455
 42
50.0
 43
0.0
 44
0.0
 50
0.0
 51
0.0
 71
     0
 72
  2000
 73
     1
 74
     3
 75
     0
 76
     0
 77
     0
 78
     0
281
     0
 65
     1
110
0.0
120
0.0
130
0.0
111
1.0
121
0.0
131
0.0
112
0.0
122
1.0
132
0.0
 79
     0
146
0.0
  0
ENDTAB
  0
TABLE
  2
LTYPE
  5
5
330
0
100
AcDbSymbolTable
 70
     6
  0
LTYPE
  5
14
330
5
100
AcDbSymbolTableRecord
100
AcDbLinetypeTableRecord
  2
ByBlock
 70
     0
  3

 72
    65
 73
     0
 40
0.0
  0
LTYPE
  5
15
330
5
100
AcDbSymbolTableRecord
100
AcDbLinetypeTableRecord
  2
ByLayer
 70
     0
  3

 72
    65
 73
     0
 40
0.0
  0
LTYPE
  5
16
330
5
100
AcDbSymbolTableRecord
100
AcDbLinetypeTableRecord
  2
Continuous
 70
     0
  3
Solid line
 72
    65
 73
     0
 40
0.0
  0
LTYPE
  5
3F
330
5
100
AcDbSymbolTableRecord
100
AcDbLinetypeTableRecord
  2
HIDDEN
 70
     0
  3
Hidden __ __ __ __ __ __ __ __ __ __ __ __ __ __
 72
    65
 73
     2
 40
1.905
 49
1.27
 74
     0
 49
-0.635
 74
     0
  0
LTYPE
  5
40
330
5
100
AcDbSymbolTableRecord
100
AcDbLinetypeTableRecord
  2
PHANTOM
 70
     0
  3
Phantom ______  __  __  ______  __  __  ______
 72
    65
 73
     6
 40
12.7
 49
6.35
 74
     0
 49
-1.27
 74
     0
 49
1.27
 74
     0
 49
-1.27
 74
     0
 49
1.27
 74
     0
 49
-1.27
 74
     0
  0
LTYPE
  5
41
330
5
100
AcDbSymbolTableRecord
100
AcDbLinetypeTableRecord
  2
CENTER
 70
     0
  3
Center ____ _ ____ _ ____ _ ____ _ ____ _ ____
 72
    65
 73
     4
 40
10.16
 49
6.35
 74
     0
 49
-1.27
 74
     0
 49
1.27
 74
     0
 49
-1.27
 74
     0
  0
LTYPE
  5
42
330
5
100
AcDbSymbolTableRecord
100
AcDbLinetypeTableRecord
  2
CENTERX2
 70
     0
  3
Center (2x) ________  __  ________  __  _____
 72
    65
 73
     4
 40
20.32
 49
12.7
 74
     0
 49
-2.54
 74
     0
 49
2.54
 74
     0
 49
-2.54
 74
     0
  0
LTYPE
  5
43
330
5
100
AcDbSymbolTableRecord
100
AcDbLinetypeTableRecord
  2
DOT2
 70
     0
  3
Dot (.5x) ........................................
 72
    65
 73
     2
 40
0.635
 49
0.0
 74
     0
 49
-0.635
 74
     0
  0
ENDTAB
  0
TABLE
  2
LAYER
  5
2
330
0
100
AcDbSymbolTable
 70
    27
  0
LAYER
  5
10
330
2
100
AcDbSymbolTableRecord
100
AcDbLayerTableRecord
  2
0
 70
     0
 62
     7
  6
Continuous
370
    -3
390
F
  0
LAYER
  5
44
330
2
100
AcDbSymbolTableRecord
100
AcDbLayerTableRecord
  2
NEW_DIMS
 70
     0
 62
     1
  6
Continuous
370
    -3
390
F
  0
LAYER
  5
45
330
2
100
AcDbSymbolTableRecord
100
AcDbLayerTableRecord
  2
HIDDEN_DIMS
 70
     0
 62
    -3
  6
Continuous
370
    -3
390
F
  0
LAYER
  5
46
330
2
100
AcDbSymbolTableRecord
100
AcDbLayerTableRecord
  2
FORMAT
 70
     0
 62
     7
  6
Continuous
370
    -3
390
F
  0
LAYER
  5
47
330
2
100
AcDbSymbolTableRecord
100
AcDbLayerTableRecord
  2
BOARD_OUTLINE
 70
     0
 62
    98
  6
Continuous
370
    -3
390
F
  0
LAYER
  5
48
330
2
100
AcDbSymbolTableRecord
100
AcDbLayerTableRecord
  2
REMINDERS
 70
     0
 62
     1
  6
Continuous
370
    -3
390
F
  0
LAYER
  5
49
330
2
100
AcDbSymbolTableRecord
100
AcDbLayerTableRecord
  2
DIM
 70
     0
 62
   131
  6
Continuous
370
    -3
390
F
  0
LAYER
  5
4A
330
2
100
AcDbSymbolTableRecord
100
AcDbLayerTableRecord
  2
BOARD_CUTOUT
 70
     0
 62
     3
  6
Continuous
370
    -3
390
F
  0
LAYER
  5
4B
330
2
100
AcDbSymbolTableRecord
100
AcDbLayerTableRecord
  2
DRILLED_HOLES
 70
     0
 62
    56
  6
Continuous
370
    -3
390
F
  0
LAYER
  5
4C
330
2
100
AcDbSymbolTableRecord
100
AcDbLayerTableRecord
  2
NEAR_COMPONENT
 70
     0
 62
    11
  6
Continuous
370
    -3
390
F
  0
LAYER
  5
4D
330
2
100
AcDbSymbolTableRecord
100
AcDbLayerTableRecord
  2
NEAR_KEEPOUT
 70
     0
 62
     1
  6
Continuous
370
    -3
390
F
  0
LAYER
  5
4E
330
2
100
AcDbSymbolTableRecord
100
AcDbLayerTableRecord
  2
NEAR_HEIGHT
 70
     0
 62
   144
  6
Continuous
370
    -3
390
F
  0
LAYER
  5
4F
330
2
100
AcDbSymbolTableRecord
100
AcDbLayerTableRecord
  2
FAR_COMPONENT
 70
     0
 62
    16
  6
Continuous
370
    -3
390
F
  0
LAYER
  5
50
330
2
100
AcDbSymbolTableRecord
100
AcDbLayerTableRecord
  2
FAR_KEEPOUT
 70
     0
 62
    11
  6
Continuous
370
    -3
390
F
  0
LAYER
  5
51
330
2
100
AcDbSymbolTableRecord
100
AcDbLayerTableRecord
  2
FAR_HEIGHT
 70
     0
 62
   171
  6
Continuous
370
    -3
390
F
  0
LAYER
  5
52
330
2
100
AcDbSymbolTableRecord
100
AcDbLayerTableRecord
  2
NEAR_HEIGHT_TEXT
 70
     0
 62
     7
  6
Continuous
370
    -3
390
F
  0
LAYER
  5
53
330
2
100
AcDbSymbolTableRecord
100
AcDbLayerTableRecord
  2
NEAR_COMPONENT_TEXT
 70
     0
 62
     7
  6
Continuous
370
    -3
390
F
  0
LAYER
  5
54
330
2
100
AcDbSymbolTableRecord
100
AcDbLayerTableRecord
  2
FAR_HEIGHT_TEXT
 70
     0
 62
     7
  6
Continuous
370
    -3
390
F
  0
LAYER
  5
55
330
2
100
AcDbSymbolTableRecord
100
AcDbLayerTableRecord
  2
FAR_COMPONENT_TEXT
 70
     0
 62
     7
  6
Continuous
370
    -3
390
F
  0
LAYER
  5
56
330
2
100
AcDbSymbolTableRecord
100
AcDbLayerTableRecord
  2
NEAR_COPPER
 70
     0
 62
     1
  6
Continuous
370
    -3
390
F
  0
LAYER
  5
57
330
2
100
AcDbSymbolTableRecord
100
AcDbLayerTableRecord
  2
FAR_COPPER
 70
     0
 62
     1
  6
Continuous
370
    -3
390
F
  0
LAYER
  5
58
330
2
100
AcDbSymbolTableRecord
100
AcDbLayerTableRecord
  2
NEAR_COPPER_CUTOUT
 70
     0
 62
     5
  6
Continuous
370
    -3
390
F
  0
LAYER
  5
59
330
2
100
AcDbSymbolTableRecord
100
AcDbLayerTableRecord
  2
FAR_COPPER_CUTOUT
 70
     0
 62
     5
  6
Continuous
370
    -3
390
F
  0
LAYER
  5
5A
330
2
100
AcDbSymbolTableRecord
100
AcDbLayerTableRecord
  2
NEAR_SMASK
 70
     0
 62
     4
  6
Continuous
370
    -3
390
F
  0
LAYER
  5
5B
330
2
100
AcDbSymbolTableRecord
100
AcDbLayerTableRecord
  2
FAR_SMASK
 70
     0
 62
     4
  6
Continuous
370
    -3
390
F
  0
LAYER
  5
5C
330
2
100
AcDbSymbolTableRecord
100
AcDbLayerTableRecord
  2
NEAR_SMASK_CUTOUT
 70
     0
 62
     3
  6
Continuous
370
    -3
390
F
  0
LAYER
  5
5D
330
2
100
AcDbSymbolTableRecord
100
AcDbLayerTableRecord
  2
FAR_SMASK_CUTOUT
 70
     0
 62
     6
  6
Continuous
370
    -3
390
F
  0
ENDTAB
  0
TABLE
  2
STYLE
  5
3
330
0
100
AcDbSymbolTable
 70
     3
  0
STYLE
  5
11
330
3
100
AcDbSymbolTableRecord
100
AcDbTextStyleTableRecord
  2
Standard
 70
     0
 40
0.0
 41
1.0
 50
0.0
 71
     0
 42
4.2333333333
  3
txt
  4

  0
STYLE
  5
6C
330
3
100
AcDbSymbolTableRecord
100
AcDbTextStyleTableRecord
  2
SLDTEXTSTYLE0
 70
     0
 40
0.0
 41
0.75
 50
0.0
 71
     0
 42
0.2
  3
TXT
  4

  0
STYLE
  5
C0
330
3
100
AcDbSymbolTableRecord
100
AcDbTextStyleTableRecord
  2
SLDTEXTSTYLE1
 70
     0
 40
0.0
 41
0.6982758621
 50
0.0
 71
     0
 42
0.2
  3
TXT
  4

  0
ENDTAB
  0
TABLE
  2
VIEW
  5
6
330
0
100
AcDbSymbolTable
 70
     0
  0
ENDTAB
  0
TABLE
  2
UCS
  5
7
330
0
100
AcDbSymbolTable
 70
     0
  0
ENDTAB
  0
TABLE
  2
APPID
  5
9
330
0
100
AcDbSymbolTable
 70
     1
  0
APPID
  5
12
330
9
100
AcDbSymbolTableRecord
100
AcDbRegAppTableRecord
  2
ACAD
 70
     0
  0
ENDTAB
  0
TABLE
  2
DIMSTYLE
  5
A
330
0
100
AcDbSymbolTable
 70
     4
100
AcDbDimStyleTable
  0
DIMSTYLE
105
27
330
A
100
AcDbSymbolTableRecord
100
AcDbDimStyleTableRecord
  2
ISO-25
 70
     0
 41
2.5
 42
0.625
 43
3.75
 44
1.25
 73
     0
 74
     0
 77
     1
 78
     8
140
2.5
141
2.5
143
0.0393700787
147
0.625
171
     3
172
     1
178
     0
271
     2
272
     2
274
     3
278
    44
283
     0
284
     8
340
11
  0
DIMSTYLE
105
F2
102
{ACAD_REACTORS
330
F1
330
104
102
}
330
A
100
AcDbSymbolTableRecord
100
AcDbDimStyleTableRecord
  2
SLDDIMSTYLE0
 70
     0
 41
3.0
 44
0.0
 45
0.000000001
 78
     4
 79
     1
140
3.175
143
0.0393700787
147
0.79375
148
0.000000001
170
     1
173
     1
178
     0
271
     2
272
     2
274
     3
276
     2
284
    12
340
6C
  0
DIMSTYLE
105
117
102
{ACAD_REACTORS
330
116
102
}
330
A
100
AcDbSymbolTableRecord
100
AcDbDimStyleTableRecord
  2
SLDDIMSTYLE1
 70
     0
 41
3.0
 44
0.0
 45
0.000000001
 78
    12
 79
     3
140
3.175
141
0.0
143
0.0393700787
147
0.79375
148
0.000000001
170
     1
173
     1
178
     0
271
     2
272
     2
274
     3
276
     2
284
    12
340
6C
  0
DIMSTYLE
105
128
330
A
100
AcDbSymbolTableRecord
100
AcDbDimStyleTableRecord
  2
SLDDIMSTYLE2
 70
     0
 41
3.0
 44
0.0
 45
0.000000001
140
0.0
146
3.0
147
0.0
173
     1
178
     0
271
     0
272
     0
276
     2
340
11
  0
ENDTAB
  0
TABLE
  2
BLOCK_RECORD
  5
1
330
0
100
AcDbSymbolTable
 70
    11
  0
BLOCK_RECORD
  5
1F
330
1
100
AcDbSymbolTableRecord
100
AcDbBlockTableRecord
  2
*Model_Space
340
22
  0
BLOCK_RECORD
  5
1B
330
1
100
AcDbSymbolTableRecord
100
AcDbBlockTableRecord
  2
*Paper_Space
340
1E
  0
BLOCK_RECORD
  5
23
330
1
100
AcDbSymbolTableRecord
100
AcDbBlockTableRecord
  2
*Paper_Space0
340
26
  0
BLOCK_RECORD
  5
5E
330
1
100
AcDbSymbolTableRecord
100
AcDbBlockTableRecord
  2
RevBlock
340
0
  0
BLOCK_RECORD
  5
7E
330
1
100
AcDbSymbolTableRecord
100
AcDbBlockTableRecord
  2
Sheet2Block
340
0
  0
BLOCK_RECORD
  5
95
330
1
100
AcDbSymbolTableRecord
100
AcDbBlockTableRecord
  2
TitleBlock_D_Metric
340
0
  0
BLOCK_RECORD
  5
B2
330
1
100
AcDbSymbolTableRecord
100
AcDbBlockTableRecord
  2
SW_NOTE_0
340
0
102
{BLKREFS
331
B7
102
}
  0
BLOCK_RECORD
  5
BB
330
1
100
AcDbSymbolTableRecord
100
AcDbBlockTableRecord
  2
SW_NOTE_1
340
0
102
{BLKREFS
331
C3
102
}
  0
BLOCK_RECORD
  5
D7
330
1
100
AcDbSymbolTableRecord
100
AcDbBlockTableRecord
  2
SW_NOTE_2
340
0
102
{BLKREFS
331
DC
102
}
  0
BLOCK_RECORD
  5
F3
330
1
100
AcDbSymbolTableRecord
100
AcDbBlockTableRecord
  2
_D
340
0
  0
BLOCK_RECORD
  5
105
330
1
100
AcDbSymbolTableRecord
100
AcDbBlockTableRecord
  2
_D_1
340
0
  0
BLOCK_RECORD
  5
118
330
1
100
AcDbSymbolTableRecord
100
AcDbBlockTableRecord
  2
_D_2
340
0
  0
BLOCK_RECORD
  5
12A
330
1
100
AcDbSymbolTableRecord
100
AcDbBlockTableRecord
  2
SW_NOTE_3
340
0
102
{BLKREFS
331
131
102
}
  0
ENDTAB
  0
ENDSEC
  0
SECTION
  2
BLOCKS
  0
BLOCK
  5
20
330
1F
100
AcDbEntity
  8
0
100
AcDbBlockBegin
  2
*Model_Space
 70
     0
 10
0.0
 20
0.0
 30
0.0
  3
*Model_Space
  1

  0
ENDBLK
  5
21
330
1F
100
AcDbEntity
  8
0
100
AcDbBlockEnd
  0
BLOCK
  5
1C
330
1B
100
AcDbEntity
 67
     1
  8
0
100
AcDbBlockBegin
  2
*Paper_Space
 70
     0
 10
0.0
 20
0.0
 30
0.0
  3
*Paper_Space
  1

  0
ENDBLK
  5
1D
330
1B
100
AcDbEntity
 67
     1
  8
0
100
AcDbBlockEnd
  0
BLOCK
  5
24
330
23
100
AcDbEntity
  8
0
100
AcDbBlockBegin
  2
*Paper_Space0
 70
     0
 10
0.0
 20
0.0
 30
0.0
  3
*Paper_Space0
  1

  0
ENDBLK
  5
25
330
23
100
AcDbEntity
  8
0
100
AcDbBlockEnd
  0
BLOCK
  5
5F
330
5E
100
AcDbEntity
  8
0
100
AcDbBlockBegin
  2
RevBlock
 70
     2
 10
0.0
 20
0.0
 30
0.0
  3
RevBlock
  1

  0
LINE
  5
61
330
5E
100
AcDbEntity
  8
0
  6
Continuous
 62
     7
370
     0
100
AcDbLine
 10
415.7982349465
 20
269.7578298493
 30
0.0
 11
415.7982349465
 21
238.252
 31
0.0
  0
LINE
  5
62
330
5E
100
AcDbEntity
  8
0
  6
Continuous
 62
     7
370
     0
100
AcDbLine
 10
368.1070866114
 20
263.652
 30
0.0
 11
368.1070866114
 21
238.252
 31
0.0
  0
LINE
  5
63
330
5E
100
AcDbEntity
  8
0
  6
Continuous
 62
     7
370
     0
100
AcDbLine
 10
390.4590866114
 20
263.652
 30
0.0
 11
390.4590866114
 21
238.252
 31
0.0
  0
LINE
  5
64
330
5E
100
AcDbEntity
  8
0
  6
Continuous
 62
     7
370
     0
100
AcDbLine
 10
279.4713155723
 20
238.252
 30
0.0
 11
279.4713155723
 21
269.7578298493
 31
0.0
  0
LINE
  5
65
330
5E
100
AcDbEntity
  8
0
  6
Continuous
 62
     7
370
     0
100
AcDbLine
 10
288.9963155723
 20
238.252
 30
0.0
 11
288.9963155723
 21
263.652
 31
0.0
  0
LINE
  5
66
330
5E
100
AcDbEntity
  8
0
  6
Continuous
 62
     7
370
     0
100
AcDbLine
 10
279.4713155723
 20
244.602
 30
0.0
 11
415.798
 21
244.602
 31
0.0
  0
LINE
  5
67
330
5E
100
AcDbEntity
  8
0
  6
Continuous
 62
     7
370
     0
100
AcDbLine
 10
279.4713155723
 20
250.952
 30
0.0
 11
415.798
 21
250.952
 31
0.0
  0
LINE
  5
68
330
5E
100
AcDbEntity
  8
0
  6
Continuous
 62
     7
370
     0
100
AcDbLine
 10
279.4713155723
 20
238.252
 30
0.0
 11
415.7982349465
 21
238.252
 31
0.0
  0
LINE
  5
69
330
5E
100
AcDbEntity
  8
0
  6
Continuous
 62
     7
370
     0
100
AcDbLine
 10
279.4713155723
 20
263.652
 30
0.0
 11
415.798
 21
263.652
 31
0.0
  0
LINE
  5
6A
330
5E
100
AcDbEntity
  8
0
  6
Continuous
 62
     7
370
     0
100
AcDbLine
 10
279.4713155723
 20
269.7578298493
 30
0.0
 11
415.7982349465
 21
269.7578298493
 31
0.0
  0
LINE
  5
6B
330
5E
100
AcDbEntity
  8
0
  6
Continuous
 62
     7
370
     0
100
AcDbLine
 10
279.4713155723
 20
257.302
 30
0.0
 11
415.798
 21
257.302
 31
0.0
  0
MTEXT
  5
6D
330
5E
100
AcDbEntity
  8
0
  6
Continuous
 62
     7
370
     0
100
AcDbMText
 10
375.6009675382
 20
261.3698842054
 30
0.0
 40
1.905
 41
0.0
 71
     1
 72
     1
  1
DATE
  7
SLDTEXTSTYLE0
 73
     1
 44
1.0
  0
MTEXT
  5
6E
330
5E
100
AcDbEntity
  8
0
  6
Continuous
 62
     7
370
     0
100
AcDbMText
 10
399.9878635694
 20
261.3998029833
 30
0.0
 40
1.905
 41
0.0
 71
     1
 72
     1
  1
ECO
  7
SLDTEXTSTYLE0
 73
     1
 44
1.0
  0
MTEXT
  5
6F
330
5E
100
AcDbEntity
  8
0
  6
Continuous
 62
     7
370
     0
100
AcDbMText
 10
341.8871165321
 20
267.5511372198
 30
0.0
 40
1.905
 41
0.0
 71
     1
 72
     1
  1
REVISIONS
  7
SLDTEXTSTYLE0
 73
     1
 44
1.0
  0
MTEXT
  5
70
330
5E
100
AcDbEntity
  8
0
  6
Continuous
 62
     7
370
     0
100
AcDbMText
 10
322.9199548368
 20
261.4116095999
 30
0.0
 40
1.905
 41
0.0
 71
     1
 72
     1
  1
DESCRIPTION
  7
SLDTEXTSTYLE0
 73
     1
 44
1.0
  0
MTEXT
  5
71
330
5E
100
AcDbEntity
  8
0
  6
Continuous
 62
     7
370
     0
100
AcDbMText
 10
284.2375367981
 20
261.3990806622
 30
0.0
 40
1.905
 41
0.0
 71
     2
 72
     1
  1
REV
  7
SLDTEXTSTYLE0
 73
     1
 44
1.0
  0
ATTDEF
  5
72
330
5E
100
AcDbEntity
  8
0
  6
Continuous
 62
     7
370
     0
100
AcDbText
 10
0.0
 20
0.0
 30
0.0
 40
1.0
  1

100
AcDbAttributeDefinition
  3

  2
AUTOATTR0
 70
     0
  0
ATTDEF
  5
73
330
5E
100
AcDbEntity
  8
0
  6
Continuous
 62
     7
370
     0
100
AcDbText
 10
0.0
 20
0.0
 30
0.0
 40
1.0
  1

100
AcDbAttributeDefinition
  3

  2
AUTOATTR1
 70
     0
  0
ATTDEF
  5
74
330
5E
100
AcDbEntity
  8
0
  6
Continuous
 62
     7
370
     0
100
AcDbText
 10
0.0
 20
0.0
 30
0.0
 40
1.0
  1

100
AcDbAttributeDefinition
  3

  2
AUTOATTR2
 70
     0
  0
ATTDEF
  5
75
330
5E
100
AcDbEntity
  8
0
  6
Continuous
 62
     7
370
     0
100
AcDbText
 10
0.0
 20
0.0
 30
0.0
 40
1.0
  1

100
AcDbAttributeDefinition
  3

  2
AUTOATTR3
 70
     0
  0
ATTDEF
  5
76
330
5E
100
AcDbEntity
  8
0
  6
Continuous
 62
     7
370
     0
100
AcDbText
 10
0.0
 20
0.0
 30
0.0
 40
1.0
  1

100
AcDbAttributeDefinition
  3

  2
AUTOATTR4
 70
     0
  0
ATTDEF
  5
77
330
5E
100
AcDbEntity
  8
0
  6
Continuous
 62
     7
370
     0
100
AcDbText
 10
0.0
 20
0.0
 30
0.0
 40
1.0
  1

100
AcDbAttributeDefinition
  3

  2
AUTOATTR5
 70
     0
  0
ATTDEF
  5
78
330
5E
100
AcDbEntity
  8
0
  6
Continuous
 62
     7
370
     0
100
AcDbText
 10
0.0
 20
0.0
 30
0.0
 40
1.0
  1

100
AcDbAttributeDefinition
  3

  2
AUTOATTR6
 70
     0
  0
ATTDEF
  5
79
330
5E
100
AcDbEntity
  8
0
  6
Continuous
 62
     7
370
     0
100
AcDbText
 10
0.0
 20
0.0
 30
0.0
 40
1.0
  1

100
AcDbAttributeDefinition
  3

  2
AUTOATTR7
 70
     0
  0
ATTDEF
  5
7A
330
5E
100
AcDbEntity
  8
0
  6
Continuous
 62
     7
370
     0
100
AcDbText
 10
0.0
 20
0.0
 30
0.0
 40
1.0
  1

100
AcDbAttributeDefinition
  3

  2
AUTOATTR8
 70
     0
  0
ATTDEF
  5
7B
330
5E
100
AcDbEntity
  8
0
  6
Continuous
 62
     7
370
     0
100
AcDbText
 10
0.0
 20
0.0
 30
0.0
 40
1.0
  1

100
AcDbAttributeDefinition
  3

  2
AUTOATTR9
 70
     0
  0
ATTDEF
  5
7C
330
5E
100
AcDbEntity
  8
0
  6
Continuous
 62
     7
370
     0
100
AcDbText
 10
0.0
 20
0.0
 30
0.0
 40
1.0
  1

100
AcDbAttributeDefinition
  3

  2
AUTOATTR10
 70
     0
  0
ATTDEF
  5
7D
330
5E
100
AcDbEntity
  8
0
  6
Continuous
 62
     7
370
     0
100
AcDbText
 10
0.0
 20
0.0
 30
0.0
 40
1.0
  1

100
AcDbAttributeDefinition
  3

  2
AUTOATTR11
 70
     0
  0
ENDBLK
  5
60
330
5E
100
AcDbEntity
  8
0
100
AcDbBlockEnd
  0
BLOCK
  5
7F
330
7E
100
AcDbEntity
  8
0
100
AcDbBlockBegin
  2
Sheet2Block
 70
     2
 10
0.0
 20
0.0
 30
0.0
  3
Sheet2Block
  1

  0
LINE
  5
81
330
7E
100
AcDbEntity
  8
0
  6
Continuous
 62
     7
370
    30
100
AcDbLine
 10
186.0924158295
 20
112.0500179748
 30
0.0
 11
146.6700220672
 21
112.0500179748
 31
0.0
  0
LINE
  5
82
330
7E
100
AcDbEntity
  8
0
  6
Continuous
 62
     7
370
    30
100
AcDbLine
 10
164.831978929
 20
104.7879154023
 30
0.0
 11
164.831978929
 21
112.0500179748
 31
0.0
  0
LINE
  5
83
330
7E
100
AcDbEntity
  8
0
  6
Continuous
 62
     7
370
    30
100
AcDbLine
 10
186.0924158295
 20
120.9931154023
 30
0.0
 11
186.0924158295
 21
104.7879154023
 31
0.0
  0
LINE
  5
84
330
7E
100
AcDbEntity
  8
0
  6
Continuous
 62
     7
370
    30
100
AcDbLine
 10
146.6700220672
 20
120.9931154023
 30
0.0
 11
198.7968313079
 21
120.9931154023
 31
0.0
  0
LINE
  5
85
330
7E
100
AcDbEntity
  8
0
  6
Continuous
 62
     7
370
    30
100
AcDbLine
 10
146.6700220672
 20
104.7879154023
 30
0.0
 11
198.7968313079
 21
104.7879154023
 31
0.0
  0
LINE
  5
86
330
7E
100
AcDbEntity
  8
0
  6
Continuous
 62
     7
370
    30
100
AcDbLine
 10
198.7968313079
 20
104.7879154023
 30
0.0
 11
198.7968313079
 21
120.9931154023
 31
0.0
  0
LINE
  5
87
330
7E
100
AcDbEntity
  8
0
  6
Continuous
 62
     7
370
    30
100
AcDbLine
 10
146.6700220672
 20
120.9931154023
 30
0.0
 11
146.6700220672
 21
104.7879154023
 31
0.0
  0
LINE
  5
88
330
7E
100
AcDbEntity
  8
FORMAT
 62
     7
370
    30
100
AcDbLine
 10
153.839049613
 20
104.7879154023
 30
0.0
 11
153.839049613
 21
112.0500179748
 31
0.0
  0
MTEXT
  5
89
330
7E
100
AcDbEntity
  8
FORMAT
100
AcDbMText
 10
148.4544557823
 20
111.3707311206
 30
0.0
 40
1.524
 41
0.0
 71
     1
 72
     1
  1
SIZE
  7
SLDTEXTSTYLE0
 73
     1
 44
1.0
  0
MTEXT
  5
8A
330
7E
100
AcDbEntity
  8
0
  6
Continuous
 62
     7
370
     0
100
AcDbMText
 10
148.2571563815
 20
119.6091933105
 30
0.0
 40
1.524
 41
0.0
 71
     1
 72
     1
  1
DWG. NO.
  7
SLDTEXTSTYLE0
 73
     1
 44
1.0
  0
MTEXT
  5
8B
330
7E
100
AcDbEntity
  8
0
  6
Continuous
 62
     7
370
     0
100
AcDbMText
 10
178.2519246613
 20
111.3707311206
 30
0.0
 40
1.524
 41
0.0
 71
     1
 72
     1
  1
OF
  7
SLDTEXTSTYLE0
 73
     1
 44
1.0
  0
MTEXT
  5
8C
330
7E
100
AcDbEntity
  8
0
  6
Continuous
 62
     7
370
     0
100
AcDbMText
 10
166.6670671132
 20
111.3707311206
 30
0.0
 40
1.524
 41
0.0
 71
     1
 72
     1
  1
SHT
  7
SLDTEXTSTYLE0
 73
     1
 44
1.0
  0
MTEXT
  5
8D
330
7E
100
AcDbEntity
  8
0
  6
Continuous
 62
     7
370
     0
100
AcDbMText
 10
156.020193134
 20
111.3707311206
 30
0.0
 40
1.524
 41
0.0
 71
     1
 72
     1
  1
SCALE
  7
SLDTEXTSTYLE0
 73
     1
 44
1.0
  0
MTEXT
  5
8E
330
7E
100
AcDbEntity
  8
0
  6
Continuous
 62
     7
370
     0
100
AcDbMText
 10
190.8082488515
 20
119.6091933105
 30
0.0
 40
1.524
 41
0.0
 71
     1
 72
     1
  1
REV.
  7
SLDTEXTSTYLE0
 73
     1
 44
1.0
  0
ATTDEF
  5
8F
330
7E
100
AcDbEntity
  8
0
  6
Continuous
 62
     7
370
     0
100
AcDbText
 10
180.7550307684
 20
106.3461161607
 30
0.0
 40
2.6458333333
  1
1
 41
0.75
  7
SLDTEXTSTYLE0
 11
180.7550307684
 21
105.4114489135
 31
0.0
100
AcDbAttributeDefinition
  3

  2
AUTOATTR0
 70
     0
 74
     1
  0
ATTDEF
  5
90
330
7E
100
AcDbEntity
  8
FORMAT
 62
     7
100
AcDbText
 10
148.8088777714
 20
106.2345128174
 30
0.0
 40
2.6458333333
  1
D
 41
0.75
  7
SLDTEXTSTYLE0
 11
148.8088777714
 21
105.2998455702
 31
0.0
100
AcDbAttributeDefinition
  3

  2
AUTOATTR2
 70
     0
 74
     1
  0
ATTDEF
  5
91
330
7E
100
AcDbEntity
  8
0
  6
Continuous
 62
     7
370
     0
100
AcDbText
 10
170.2762811099
 20
106.3461161607
 30
0.0
 40
2.6458333333
  1
1
 41
0.75
  7
SLDTEXTSTYLE0
 11
170.2762811099
 21
105.4114489135
 31
0.0
100
AcDbAttributeDefinition
  3

  2
AUTOATTR3
 70
     0
 74
     1
  0
ATTDEF
  5
92
330
7E
100
AcDbEntity
  8
0
  6
Continuous
 62
     7
370
     0
100
AcDbText
 10
157.0259823045
 20
106.3461161607
 30
0.0
 40
2.6458333333
  1
1:1
 41
0.75
  7
SLDTEXTSTYLE0
 11
157.0259823045
 21
105.4114489135
 31
0.0
100
AcDbAttributeDefinition
  3

  2
AUTOATTR1
 70
     0
 74
     1
  0
ATTDEF
  5
93
330
7E
100
AcDbEntity
  8
FORMAT
 62
     7
100
AcDbText
 10
0.0
 20
0.0
 30
0.0
 40
1.0
  1

100
AcDbAttributeDefinition
  3

  2
AUTOATTR5
 70
     0
  0
ATTDEF
  5
94
330
7E
100
AcDbEntity
  8
FORMAT
 62
     7
100
AcDbText
 10
151.0184021507
 20
113.5421215703
 30
0.0
 40
3.7041666667
  1
DRAW1
 41
0.75
  7
SLDTEXTSTYLE0
 11
151.0184021507
 21
112.2335874243
 31
0.0
100
AcDbAttributeDefinition
  3

  2
AUTOATTR21
 70
     0
 74
     1
  0
ENDBLK
  5
80
330
7E
100
AcDbEntity
  8
0
100
AcDbBlockEnd
  0
BLOCK
  5
96
330
95
100
AcDbEntity
  8
0
100
AcDbBlockBegin
  2
TitleBlock_D_Metric
 70
     2
 10
0.0
 20
0.0
 30
0.0
  3
TitleBlock_D_Metric
  1

  0
CIRCLE
  5
98
330
95
100
AcDbEntity
  8
FORMAT
 62
     7
100
AcDbCircle
 10
476.7365913679
 20
57.2452114961
 30
0.0
 40
1.000000000000079
  0
CIRCLE
  5
99
330
95
100
AcDbEntity
  8
FORMAT
 62
     7
100
AcDbCircle
 10
476.7365913679
 20
57.2452114961
 30
0.0
 40
2.139120971233325
  0
LINE
  5
9A
330
95
100
AcDbEntity
  8
0
  6
Continuous
 62
     7
370
     0
100
AcDbLine
 10
650.7782757948
 20
82.2714915075
 30
0.0
 11
520.7302757948
 21
82.2714915075
 31
0.0
  0
LINE
  5
9B
330
95
100
AcDbEntity
  8
0
  6
Continuous
 62
     7
370
     0
100
AcDbLine
 10
650.7769210841
 20
53.9637492507
 30
0.0
 11
520.7302757948
 21
53.9637492507
 31
0.0
  0
LINE
  5
9C
330
95
100
AcDbEntity
  8
0
  6
Continuous
 62
     7
370
     0
100
AcDbLine
 10
650.7769210841
 20
53.9637492507
 30
0.0
 11
520.7302757948
 21
53.9637492507
 31
0.0
  0
LINE
  5
9D
330
95
100
AcDbEntity
  8
0
  6
Continuous
 62
     7
370
     0
100
AcDbLine
 10
650.7782757948
 20
82.2714915075
 30
0.0
 11
520.7302757948
 21
82.2714915075
 31
0.0
  0
LINE
  5
9E
330
95
100
AcDbEntity
  8
0
  6
Continuous
 62
     7
370
     0
100
AcDbLine
 10
520.7302757948
 20
37.7816861971
 30
0.0
 11
520.7302757948
 21
101.4625635444
 31
0.0
  0
LINE
  5
9F
330
95
100
AcDbEntity
  8
0
  6
Continuous
 62
     7
370
     0
100
AcDbLine
 10
520.7302757948
 20
37.7816861971
 30
0.0
 11
520.7302757948
 21
101.4625635444
 31
0.0
  0
LINE
  5
A0
330
95
100
AcDbEntity
  8
FORMAT
  6
CENTERX2
 62
     7
100
AcDbLine
 10
485.9044226056
 20
57.2452114961
 30
0.0
 11
495.1974035014
 21
57.2452114961
 31
0.0
  0
LINE
  5
A1
330
95
100
AcDbEntity
  8
FORMAT
 62
     7
100
AcDbLine
 10
486.7451777099
 20
58.2452114961
 30
0.0
 11
486.7451777099
 21
56.2452114961
 31
0.0
  0
LINE
  5
A2
330
95
100
AcDbEntity
  8
FORMAT
 62
     7
100
AcDbLine
 10
494.2451777099
 20
59.2452114961
 30
0.0
 11
494.2451777099
 21
55.2452114961
 31
0.0
  0
LINE
  5
A3
330
95
100
AcDbEntity
  8
FORMAT
 62
     7
100
AcDbLine
 10
486.7451777099
 20
58.2452114961
 30
0.0
 11
494.2451777099
 21
59.2452114961
 31
0.0
  0
LINE
  5
A4
330
95
100
AcDbEntity
  8
FORMAT
100
AcDbLine
 10
520.7302757948
 20
53.9637492507
 30
0.0
 11
450.8802757948
 21
53.9637492507
 31
0.0
  0
LINE
  5
A5
330
95
100
AcDbEntity
  8
0
  6
Continuous
 62
     7
370
     0
100
AcDbLine
 10
520.7302757948
 20
69.5087492507
 30
0.0
 11
450.8802757948
 21
69.5087492507
 31
0.0
  0
LINE
  5
A6
330
95
100
AcDbEntity
  8
FORMAT
100
AcDbLine
 10
520.7302757948
 20
61.2616250159
 30
0.0
 11
450.8802757948
 21
61.2616250159
 31
0.0
  0
LINE
  5
A7
330
95
100
AcDbEntity
  8
0
  6
Continuous
 62
     7
370
     0
100
AcDbLine
 10
650.776464717
 20
37.7587492507
 30
0.0
 11
650.7782587524
 21
101.4626102051
 31
0.0
  0
LINE
  5
A8
330
95
100
AcDbEntity
  8
0
  6
Continuous
 62
     7
370
     0
100
AcDbLine
 10
650.7782587524
 20
101.4626102051
 30
0.0
 11
520.7302757948
 21
101.4625635444
 31
0.0
  0
LINE
  5
A9
330
95
100
AcDbEntity
  8
0
  6
Continuous
 62
     7
370
     0
100
AcDbLine
 10
650.776464717
 20
37.7587492507
 30
0.0
 11
650.7782587524
 21
101.4626102051
 31
0.0
  0
LINE
  5
AA
330
95
100
AcDbEntity
  8
0
  6
Continuous
 62
     7
370
     0
100
AcDbLine
 10
650.7782587524
 20
101.4626102051
 30
0.0
 11
520.7302757948
 21
101.4625635444
 31
0.0
  0
LINE
  5
AB
330
95
100
AcDbEntity
  8
0
  6
Continuous
 62
     7
370
     0
100
AcDbLine
 10
450.8802757948
 20
37.7587492507
 30
0.0
 11
650.776464717
 21
37.7587492507
 31
0.0
  0
LINE
  5
AC
330
95
100
AcDbEntity
  8
0
  6
Continuous
 62
     7
370
     0
100
AcDbLine
 10
450.8802757948
 20
69.5087492507
 30
0.0
 11
450.8802757948
 21
37.7587492507
 31
0.0
  0
LINE
  5
AD
330
95
100
AcDbEntity
  8
0
  6
Continuous
 62
     7
370
     0
100
AcDbLine
 10
450.8802757948
 20
82.2714915075
 30
0.0
 11
520.7302757948
 21
82.2714915075
 31
0.0
  0
LINE
  5
AE
330
95
100
AcDbEntity
  8
0
  6
Continuous
 62
     7
370
     0
100
AcDbLine
 10
450.8802757948
 20
69.5087492507
 30
0.0
 11
450.8802757948
 21
82.2714915075
 31
0.0
  0
LINE
  5
AF
330
95
100
AcDbEntity
  8
FORMAT
 62
     7
100
AcDbLine
 10
486.7451777099
 20
56.2452114961
 30
0.0
 11
494.2451777099
 21
55.2452114961
 31
0.0
  0
LINE
  5
B0
330
95
100
AcDbEntity
  8
FORMAT
  6
CENTERX2
 62
     7
100
AcDbLine
 10
476.7365913679
 20
59.8858421433
 30
0.0
 11
476.7365913679
 21
54.6045808489
 31
0.0
  0
LINE
  5
B1
330
95
100
AcDbEntity
  8
FORMAT
  6
CENTERX2
 62
     7
100
AcDbLine
 10
479.4535242111
 20
57.2452114961
 30
0.0
 11
474.0196585248
 21
57.2452114961
 31
0.0
  0
INSERT
  5
B7
330
95
100
AcDbEntity
  8
FORMAT
 62
     7
100
AcDbBlockReference
  2
SW_NOTE_0
 10
522.1021834479
 20
50.0339463888
 30
0.0
  0
MTEXT
  5
B8
330
95
100
AcDbEntity
  8
FORMAT
100
AcDbMText
 10
452.0332833916
 20
68.3755138561
 30
0.0
 40
1.524
 41
0.0
 71
     1
 72
     1
  1
DRAWN
  7
SLDTEXTSTYLE0
 73
     1
 44
1.0
  0
MTEXT
  5
B9
330
95
100
AcDbEntity
  8
FORMAT
100
AcDbMText
 10
486.8315507267
 20
68.3755138561
 30
0.0
 40
1.524
 41
0.0
 71
     1
 72
     1
  1
DATE
  7
SLDTEXTSTYLE0
 73
     1
 44
1.0
  0
MTEXT
  5
BA
330
95
100
AcDbEntity
  8
0
  6
Continuous
 62
     7
370
     0
100
AcDbMText
 10
473.7728640584
 20
81.098874731
 30
0.0
 40
2.1166666667
 41
0.0
 71
     1
 72
     1
  1
CONFIDENTIAL
  7
SLDTEXTSTYLE0
 73
     1
 44
1.0
  0
INSERT
  5
C3
330
95
100
AcDbEntity
  8
0
  6
Continuous
 62
     7
370
     0
100
AcDbBlockReference
  2
SW_NOTE_1
 10
462.1850668704
 20
75.9718673125
 30
0.0
  0
MTEXT
  5
C4
330
95
100
AcDbEntity
  8
0
  6
Continuous
 62
     7
370
     0
100
AcDbMText
 10
606.7217113909
 20
88.1319908563
 30
0.0
 40
2.032
 41
0.0
 71
     1
 72
     1
  1
Olathe, Kansas 66062 USA
  7
SLDTEXTSTYLE0
 73
     1
 44
1.0
  0
MTEXT
  5
C5
330
95
100
AcDbEntity
  8
0
  6
Continuous
 62
     7
370
     0
100
AcDbMText
 10
606.5756577359
 20
91.1383661985
 30
0.0
 40
2.032
 41
0.0
 71
     1
 72
     1
  1
1200 E. 151st Street
  7
SLDTEXTSTYLE0
 73
     1
 44
1.0
  0
MTEXT
  5
C6
330
95
100
AcDbEntity
  8
0
  6
Continuous
 62
     7
370
     0
100
AcDbMText
 10
606.7265766883
 20
94.2218972809
 30
0.0
 40
2.1166666667
 41
0.0
 71
     1
 72
     1
  1
c/o Garmin International, Inc.
  7
SLDTEXTSTYLE0
 73
     1
 44
1.0
  0
MTEXT
  5
C7
330
95
100
AcDbEntity
  8
0
  6
Continuous
 62
     7
370
     0
100
AcDbMText
 10
606.6439771537
 20
97.3363792917
 30
0.0
 40
2.38125
 41
0.0
 71
     1
 72
     1
  1
Garmin Ltd. or its subsidiaries
  7
SLDTEXTSTYLE0
 73
     1
 44
1.0
  0
MTEXT
  5
C8
330
95
100
AcDbEntity
  8
0
  6
Continuous
 62
     7
370
     0
100
AcDbMText
 10
522.1021834479
 20
80.1739084986
 30
0.0
 40
1.524
 41
0.0
 71
     1
 72
     1
  1
TITLE
  7
SLDTEXTSTYLE0
 73
     1
 44
1.0
  0
MTEXT
  5
C9
330
95
100
AcDbEntity
  8
FORMAT
100
AcDbMText
 10
504.4395156012
 20
51.905678687
 30
0.0
 40
1.524
 41
0.0
 71
     1
 72
     1
  1
mm
  7
SLDTEXTSTYLE0
 73
     1
 44
1.0
  0
MTEXT
  5
CA
330
95
100
AcDbEntity
  8
FORMAT
100
AcDbMText
 10
504.0367939141
 20
49.0571470039
 30
0.0
 40
1.524
 41
0.0
 71
     1
 72
     1
  1
.X±
  7
SLDTEXTSTYLE0
 73
     1
 44
1.0
  0
MTEXT
  5
CB
330
95
100
AcDbEntity
  8
FORMAT
100
AcDbMText
 10
502.8140902488
 20
46.2445157354
 30
0.0
 40
1.524
 41
0.0
 71
     1
 72
     1
  1
.XX±
  7
SLDTEXTSTYLE0
 73
     1
 44
1.0
  0
MTEXT
  5
CC
330
95
100
AcDbEntity
  8
FORMAT
100
AcDbMText
 10
459.1369999372
 20
48.660535889
 30
0.0
 40
2.032
 41
0.0
 71
     1
 72
     1
  1
TOLERANCE
  7
SLDTEXTSTYLE0
 73
     1
 44
1.0
  0
MTEXT
  5
CD
330
95
100
AcDbEntity
  8
FORMAT
100
AcDbMText
 10
454.0115171215
 20
44.6926722197
 30
0.0
 40
1.524
 41
0.0
 71
     1
 72
     1
  1
UNLESS OTHERWISE NOTED
  7
SLDTEXTSTYLE0
 73
     1
 44
1.0
  0
MTEXT
  5
CE
330
95
100
AcDbEntity
  8
FORMAT
100
AcDbMText
 10
498.1582452686
 20
40.6086179755
 30
0.0
 40
1.524
 41
0.0
 71
     1
 72
     1
  1
ANGLES±
  7
SLDTEXTSTYLE0
 73
     1
 44
1.0
  0
MTEXT
  5
CF
330
95
100
AcDbEntity
  8
FORMAT
100
AcDbMText
 10
500.6372734818
 20
43.435308318
 30
0.0
 40
1.524
 41
0.0
 71
     1
 72
     1
  1
Ø<25±
  7
SLDTEXTSTYLE0
 73
     1
 44
1.0
  0
ATTDEF
  5
D0
330
95
100
AcDbEntity
  8
FORMAT
 62
     7
100
AcDbText
 10
0.0
 20
0.0
 30
0.0
 40
1.0
  1

100
AcDbAttributeDefinition
  3

  2
AUTOATTR110
 70
     0
  0
ATTDEF
  5
D1
330
95
100
AcDbEntity
  8
FORMAT
 62
     7
100
AcDbText
 10
0.0
 20
0.0
 30
0.0
 40
1.0
  1

100
AcDbAttributeDefinition
  3

  2
AUTOATTR120
 70
     0
  0
ATTDEF
  5
D2
330
95
100
AcDbEntity
  8
0
  6
Continuous
 62
     7
370
     0
100
AcDbText
 10
0.0
 20
0.0
 30
0.0
 40
1.0
  1

100
AcDbAttributeDefinition
  3

  2
AUTOATTR170
 70
     0
  0
ATTDEF
  5
D3
330
95
100
AcDbEntity
  8
FORMAT
 62
     7
100
AcDbText
 10
507.5971317025
 20
39.1744598057
 30
0.0
 40
1.524
  1
1.0°
 41
0.75
  7
SLDTEXTSTYLE0
 11
507.5971317025
 21
38.6360914713
 31
0.0
100
AcDbAttributeDefinition
  3

  2
AUTOATTR12
 70
     0
 74
     1
  0
ATTDEF
  5
D4
330
95
100
AcDbEntity
  8
FORMAT
 62
     7
100
AcDbText
 10
507.155939139
 20
42.0173006068
 30
0.0
 40
1.524
  1
0.08
 41
0.75
  7
SLDTEXTSTYLE0
 11
507.155939139
 21
41.4789322725
 31
0.0
100
AcDbAttributeDefinition
  3

  2
AUTOATTR812
 70
     0
 74
     1
  0
ATTDEF
  5
D5
330
95
100
AcDbEntity
  8
FORMAT
 62
     7
100
AcDbText
 10
507.2180274431
 20
44.8463891759
 30
0.0
 40
1.524
  1
0.13
 41
0.75
  7
SLDTEXTSTYLE0
 11
507.2180274431
 21
44.3080208415
 31
0.0
100
AcDbAttributeDefinition
  3

  2
AUTOATTR712
 70
     0
 74
     1
  0
ATTDEF
  5
D6
330
95
100
AcDbEntity
  8
FORMAT
 62
     7
100
AcDbText
 10
507.2588935877
 20
47.6272456135
 30
0.0
 40
1.524
  1
0.3
 41
0.75
  7
SLDTEXTSTYLE0
 11
507.2588935877
 21
47.0888772792
 31
0.0
100
AcDbAttributeDefinition
  3

  2
AUTOATTR612
 70
     0
 74
     1
  0
ENDBLK
  5
97
330
95
100
AcDbEntity
  8
0
100
AcDbBlockEnd
  0
BLOCK
  5
B3
330
B2
100
AcDbEntity
  8
0
100
AcDbBlockBegin
  2
SW_NOTE_0
 70
     0
 10
0.0
 20
0.0
 30
0.0
  3
SW_NOTE_0
  1

  0
MTEXT
  5
B5
330
B2
100
AcDbEntity
  8
FORMAT
 62
     0
100
AcDbMText
 10
0.0
 20
1.9645392354
 30
0.0
 40
1.524
 41
0.0
 71
     1
 72
     1
  1
SOURCE FILES (VERSION NUMBERS ARE
  7
SLDTEXTSTYLE0
 73
     1
 44
1.0
  0
MTEXT
  5
B6
330
B2
100
AcDbEntity
  8
FORMAT
 62
     0
100
AcDbMText
 10
0.0
 20
-0.5594606586
 30
0.0
 40
1.524
 41
0.0
 71
     1
 72
     1
  1
AUTOMATICALLY GENERATED):
  7
SLDTEXTSTYLE0
 73
     1
 44
1.0
  0
ENDBLK
  5
B4
330
B2
100
AcDbEntity
  8
0
100
AcDbBlockEnd
  0
BLOCK
  5
BC
330
BB
100
AcDbEntity
  8
0
100
AcDbBlockBegin
  2
SW_NOTE_1
 70
     0
 10
0.0
 20
0.0
 30
0.0
  3
SW_NOTE_1
  1

  0
MTEXT
  5
BE
330
BB
100
AcDbEntity
  8
0
  6
Continuous
 62
     0
370
     0
100
AcDbMText
 10
0.0
 20
1.7053291974
 30
0.0
 40
1.3229166667
 41
0.0
 71
     1
 72
     1
  1
This drawing and the specifications contained herein are
  7
SLDTEXTSTYLE0
 73
     1
 44
1.0
  0
MTEXT
  5
BF
330
BB
100
AcDbEntity
  8
0
  6
Continuous
 62
     0
370
     0
100
AcDbMText
 10
0.0
 20
-0.0585596702
 30
0.0
 40
1.3229166667
 41
0.0
 71
     1
 72
     1
  1
the property of Garmin Ltd. or its subsidiaries and may
  7
SLDTEXTSTYLE0
 73
     1
 44
1.0
  0
MTEXT
  5
C1
330
BB
100
AcDbEntity
  8
0
  6
Continuous
 62
     0
370
     0
100
AcDbMText
 10
0.0
 20
-1.8224485377
 30
0.0
 40
1.3229166667
 41
0.0
 71
     1
 72
     1
  1
not be reproduced or used in whole or in part as the basis
  7
SLDTEXTSTYLE1
 73
     1
 44
1.0
  0
MTEXT
  5
C2
330
BB
100
AcDbEntity
  8
0
  6
Continuous
 62
     0
370
     0
100
AcDbMText
 10
0.0
 20
-3.5863374053
 30
0.0
 40
1.3229166667
 41
0.0
 71
     1
 72
     1
  1
for manufacture or sale of products without written permission.
  7
SLDTEXTSTYLE0
 73
     1
 44
1.0
  0
ENDBLK
  5
BD
330
BB
100
AcDbEntity
  8
0
100
AcDbBlockEnd
  0
BLOCK
  5
D8
330
D7
100
AcDbEntity
  8
0
100
AcDbBlockBegin
  2
SW_NOTE_2
 70
     0
 10
0.0
 20
0.0
 30
0.0
  3
SW_NOTE_2
  1

  0
MTEXT
  5
DA
330
D7
100
AcDbEntity
  8
FORMAT
 62
     0
100
AcDbMText
 10
0.0
 20
4.0927900738
 30
0.0
 40
3.175
 41
0.0
 71
     1
 72
     1
  1
ENSURE DIMENSIONS MATCH THOSE IN LATEST VERSION OF INSTALLATION MANUAL 190-01115-01 PRIOR TO CUTTING PANEL
  7
SLDTEXTSTYLE0
 73
     1
 44
1.0
  0
MTEXT
  5
DB
330
D7
100
AcDbEntity
  8
FORMAT
 62
     0
100
AcDbMText
 10
0.0
 20
-0.1405432084
 30
0.0
 40
3.175
 41
0.0
 71
     1
 72
     1
  1
DIMENSIONS: [IN]mm
  7
SLDTEXTSTYLE0
 73
     1
 44
1.0
  0
ENDBLK
  5
D9
330
D7
100
AcDbEntity
  8
0
100
AcDbBlockEnd
  0
BLOCK
  5
F4
330
F3
100
AcDbEntity
  8
0
100
AcDbBlockBegin
  2
_D
 70
     0
 10
0.0
 20
0.0
 30
0.0
  3
_D
  1

  0
SOLID
  5
F6
330
F3
100
AcDbEntity
  8
FORMAT
100
AcDbTrace
 10
468.4021773141
 20
366.7273218016
 30
0.0
 11
467.6521773141
 21
363.7273218016
 31
0.0
 12
469.1521773141
 22
363.7273218016
 32
0.0
 13
469.1521773141
 23
363.7273218016
 33
0.0
  0
SOLID
  5
F7
330
F3
100
AcDbEntity
  8
FORMAT
100
AcDbTrace
 10
468.4021773141
 20
181.6273218016
 30
0.0
 11
469.1521773141
 21
184.6273218016
 31
0.0
 12
467.6521773141
 22
184.6273218016
 32
0.0
 13
467.6521773141
 23
184.6273218016
 33
0.0
  0
LINE
  5
F8
330
F3
100
AcDbEntity
  8
FORMAT
100
AcDbLine
 10
463.4934213395
 20
244.4846035624
 30
0.0
 11
462.8496018854
 21
244.4846035624
 31
0.0
  0
LINE
  5
F9
330
F3
100
AcDbEntity
  8
FORMAT
100
AcDbLine
 10
462.8496018854
 20
244.4846035624
 30
0.0
 11
462.8496018854
 21
239.4398815642
 31
0.0
  0
LINE
  5
FA
330
F3
100
AcDbEntity
  8
FORMAT
100
AcDbLine
 10
462.8496018854
 20
239.4398815642
 30
0.0
 11
463.4934213395
 21
239.4398815642
 31
0.0
  0
LINE
  5
FB
330
F3
100
AcDbEntity
  8
FORMAT
100
AcDbLine
 10
473.3109328231
 20
244.4846035624
 30
0.0
 11
473.9547522772
 21
244.4846035624
 31
0.0
  0
LINE
  5
FC
330
F3
100
AcDbEntity
  8
FORMAT
100
AcDbLine
 10
473.9547522772
 20
244.4846035624
 30
0.0
 11
473.9547522772
 21
239.4398815642
 31
0.0
  0
LINE
  5
FD
330
F3
100
AcDbEntity
  8
FORMAT
100
AcDbLine
 10
473.9547522772
 20
239.4398815642
 30
0.0
 11
473.3109328231
 21
239.4398815642
 31
0.0
  0
LINE
  5
FE
330
F3
100
AcDbEntity
  8
FORMAT
100
AcDbLine
 10
468.4021773141
 20
366.7273218016
 30
0.0
 11
468.4021773141
 21
245.128423133
 31
0.0
  0
LINE
  5
FF
330
F3
100
AcDbEntity
  8
FORMAT
100
AcDbLine
 10
468.4021773141
 20
181.6273218016
 30
0.0
 11
468.4021773141
 21
234.5627287114
 31
0.0
  0
MTEXT
  5
100
330
F3
100
AcDbEntity
  8
FORMAT
100
AcDbMText
 10
461.9728020337
 20
238.6555192509
 30
0.1
 40
3.175
 41
0.0
 71
     1
 72
     1
  1

  7
SLDTEXTSTYLE0
 73
     1
 44
1.0
  0
MTEXT
  5
101
330
F3
100
AcDbEntity
  8
FORMAT
100
AcDbMText
 10
464.2981956572
 20
243.5326711723
 30
0.1
 40
3.175
 41
0.0
 71
     1
 72
     1
  1
7.29
  7
SLDTEXTSTYLE0
 73
     1
 44
1.0
  0
MTEXT
  5
102
330
F3
100
AcDbEntity
  8
FORMAT
100
AcDbMText
 10
461.952223312
 20
238.6555187852
 30
0.1
 40
3.175
 41
0.0
 71
     1
 72
     1
  1
185.10
  7
SLDTEXTSTYLE0
 73
     1
 44
1.0
  0
MTEXT
  5
103
330
F3
100
AcDbEntity
  8
FORMAT
100
AcDbMText
 10
476.042755967
 20
238.6555192509
 30
0.1
 40
3.175
 41
0.0
 71
     1
 72
     1
  1

  7
SLDTEXTSTYLE0
 73
     1
 44
1.0
  0
ENDBLK
  5
F5
330
F3
100
AcDbEntity
  8
0
100
AcDbBlockEnd
  0
BLOCK
  5
106
330
105
100
AcDbEntity
  8
0
100
AcDbBlockBegin
  2
_D_1
 70
     0
 10
0.0
 20
0.0
 30
0.0
  3
_D_1
  1

  0
SOLID
  5
108
330
105
100
AcDbEntity
  8
FORMAT
100
AcDbTrace
 10
541.8103043687
 20
216.6127499673
 30
0.0
 11
538.8103043687
 21
217.3627499673
 31
0.0
 12
538.8103043687
 22
215.8627499673
 32
0.0
 13
538.8103043687
 23
215.8627499673
 33
0.0
  0
SOLID
  5
109
330
105
100
AcDbEntity
  8
FORMAT
100
AcDbTrace
 10
279.8103043687
 20
216.6127499673
 30
0.0
 11
282.8103043687
 21
215.8627499673
 31
0.0
 12
282.8103043687
 22
217.3627499673
 32
0.0
 13
282.8103043687
 23
217.3627499673
 33
0.0
  0
LINE
  5
10A
330
105
100
AcDbEntity
  8
FORMAT
100
AcDbLine
 10
370.999538535
 20
221.2517776075
 30
0.0
 11
370.3557190809
 21
221.2517776075
 31
0.0
  0
LINE
  5
10B
330
105
100
AcDbEntity
  8
FORMAT
100
AcDbLine
 10
370.3557190809
 20
221.2517776075
 30
0.0
 11
370.3557190809
 21
216.2070556092
 31
0.0
  0
LINE
  5
10C
330
105
100
AcDbEntity
  8
FORMAT
100
AcDbLine
 10
370.3557190809
 20
216.2070556092
 30
0.0
 11
370.999538535
 21
216.2070556092
 31
0.0
  0
LINE
  5
10D
330
105
100
AcDbEntity
  8
FORMAT
100
AcDbLine
 10
383.163022713
 20
221.2517776075
 30
0.0
 11
383.8068421671
 21
221.2517776075
 31
0.0
  0
LINE
  5
10E
330
105
100
AcDbEntity
  8
FORMAT
100
AcDbLine
 10
383.8068421671
 20
221.2517776075
 30
0.0
 11
383.8068421671
 21
216.2070556092
 31
0.0
  0
LINE
  5
10F
330
105
100
AcDbEntity
  8
FORMAT
100
AcDbLine
 10
383.8068421671
 20
216.2070556092
 30
0.0
 11
383.163022713
 21
216.2070556092
 31
0.0
  0
LINE
  5
110
330
105
100
AcDbEntity
  8
FORMAT
100
AcDbLine
 10
541.8103043687
 20
216.6127499673
 30
0.0
 11
386.1039965672
 21
216.6127499673
 31
0.0
  0
LINE
  5
111
330
105
100
AcDbEntity
  8
FORMAT
100
AcDbLine
 10
279.8103043687
 20
216.6127499673
 30
0.0
 11
368.0585642152
 21
216.6127499673
 31
0.0
  0
MTEXT
  5
112
330
105
100
AcDbEntity
  8
FORMAT
100
AcDbMText
 10
369.893433212
 20
215.4226932959
 30
0.1
 40
3.175
 41
0.0
 71
     1
 72
     1
  1

  7
SLDTEXTSTYLE0
 73
     1
 44
1.0
  0
MTEXT
  5
113
330
105
100
AcDbEntity
  8
FORMAT
100
AcDbMText
 10
371.8043128526
 20
220.2998452173
 30
0.1
 40
3.175
 41
0.0
 71
     1
 72
     1
  1
10.31
  7
SLDTEXTSTYLE0
 73
     1
 44
1.0
  0
MTEXT
  5
114
330
105
100
AcDbEntity
  8
FORMAT
100
AcDbMText
 10
370.6313268547
 20
215.4226928303
 30
0.1
 40
3.175
 41
0.0
 71
     1
 72
     1
  1
262.00
  7
SLDTEXTSTYLE0
 73
     1
 44
1.0
  0
MTEXT
  5
115
330
105
100
AcDbEntity
  8
FORMAT
100
AcDbMText
 10
385.4803318741
 20
215.4226932959
 30
0.1
 40
3.175
 41
0.0
 71
     1
 72
     1
  1

  7
SLDTEXTSTYLE0
 73
     1
 44
1.0
  0
ENDBLK
  5
107
330
105
100
AcDbEntity
  8
0
100
AcDbBlockEnd
  0
BLOCK
  5
119
330
118
100
AcDbEntity
  8
0
100
AcDbBlockBegin
  2
_D_2
 70
     0
 10
0.0
 20
0.0
 30
0.0
  3
_D_2
  1

  0
SOLID
  5
11B
330
118
100
AcDbEntity
  8
FORMAT
100
AcDbTrace
 10
541.2343867176
 20
362.229392686
 30
0.0
 11
544.2903459299
 21
362.7022703582
 31
0.0
 12
543.7082906474
 22
364.0847361438
 32
0.0
 13
543.7082906474
 23
364.0847361438
 33
0.0
  0
LINE
  5
11C
330
118
100
AcDbEntity
  8
FORMAT
100
AcDbLine
 10
564.7289279009
 20
375.1959234697
 30
0.0
 11
564.0851084468
 21
375.1959234697
 31
0.0
  0
LINE
  5
11D
330
118
100
AcDbEntity
  8
FORMAT
100
AcDbLine
 10
564.0851084468
 20
375.1959234697
 30
0.0
 11
564.0851084468
 21
370.1512014714
 31
0.0
  0
LINE
  5
11E
330
118
100
AcDbEntity
  8
FORMAT
100
AcDbLine
 10
564.0851084468
 20
370.1512014714
 30
0.0
 11
564.7289279009
 21
370.1512014714
 31
0.0
  0
LINE
  5
11F
330
118
100
AcDbEntity
  8
FORMAT
100
AcDbLine
 10
572.2004671557
 20
375.1959234697
 30
0.0
 11
572.8442866098
 21
375.1959234697
 31
0.0
  0
LINE
  5
120
330
118
100
AcDbEntity
  8
FORMAT
100
AcDbLine
 10
572.8442866098
 20
375.1959234697
 30
0.0
 11
572.8442866098
 21
370.1512014714
 31
0.0
  0
LINE
  5
121
330
118
100
AcDbEntity
  8
FORMAT
100
AcDbLine
 10
572.8442866098
 20
370.1512014714
 30
0.0
 11
572.2004671557
 21
370.1512014714
 31
0.0
  0
LINE
  5
122
330
118
100
AcDbEntity
  8
FORMAT
100
AcDbLine
 10
541.2343867176
 20
362.229392686
 30
0.0
 11
560.0760167992
 21
370.1622257696
 31
0.0
  0
LINE
  5
123
330
118
100
AcDbEntity
  8
FORMAT
100
AcDbLine
 10
560.0760167992
 20
370.1622257696
 30
0.0
 11
563.0760167992
 21
370.1622257696
 31
0.0
  0
MTEXT
  5
124
330
118
100
AcDbEntity
  8
FORMAT
100
AcDbMText
 10
565.5337022186
 20
374.2439910796
 30
0.1
 40
3.175
 41
0.0
 71
     1
 72
     1
  1
.29
  7
SLDTEXTSTYLE0
 73
     1
 44
1.0
  0
MTEXT
  5
125
330
118
100
AcDbEntity
  8
FORMAT
100
AcDbMText
 10
563.0760167992
 20
369.3668386925
 30
0.1
 40
3.175
 41
0.0
 71
     1
 72
     1
  1
R7.35
  7
SLDTEXTSTYLE0
 73
     1
 44
1.0
  0
MTEXT
  5
126
330
118
100
AcDbEntity
  8
FORMAT
100
AcDbMText
 10
575.0440034902
 20
369.3668391582
 30
0.1
 40
3.175
 41
0.0
 71
     1
 72
     1
  1
(4X)
  7
SLDTEXTSTYLE0
 73
     1
 44
1.0
  0
ENDBLK
  5
11A
330
118
100
AcDbEntity
  8
0
100
AcDbBlockEnd
  0
BLOCK
  5
12B
330
12A
100
AcDbEntity
  8
0
100
AcDbBlockBegin
  2
SW_NOTE_3
 70
     0
 10
0.0
 20
0.0
 30
0.0
  3
SW_NOTE_3
  1

  0
MTEXT
  5
12D
330
12A
100
AcDbEntity
  8
FORMAT
 62
     0
100
AcDbMText
 10
-8.464542586
 20
14.3590433509
 30
0.0
 40
3.175
 41
0.0
 71
     1
 72
     1
  1
6-32 CLEARANCE HOLE (FOR USE WITH NUT PLATE)
  7
SLDTEXTSTYLE0
 73
     1
 44
1.0
  0
MTEXT
  5
12E
330
12A
100
AcDbEntity
  8
FORMAT
 62
     0
100
AcDbMText
 10
-8.464542586
 20
10.1257100687
 30
0.0
 40
3.175
 41
0.0
 71
     1
 72
     1
  1
-OR-
  7
SLDTEXTSTYLE0
 73
     1
 44
1.0
  0
MTEXT
  5
12F
330
12A
100
AcDbEntity
  8
FORMAT
 62
     0
100
AcDbMText
 10
-8.464542586
 20
5.8923767865
 30
0.0
 40
3.175
 41
0.0
 71
     1
 72
     1
  1
6-32 TAPPED HOLE
  7
SLDTEXTSTYLE0
 73
     1
 44
1.0
  0
MTEXT
  5
130
330
12A
100
AcDbEntity
  8
FORMAT
 62
     0
100
AcDbMText
 10
-8.464542586
 20
1.6590435043
 30
0.0
 40
3.175
 41
0.0
 71
     1
 72
     1
  1
(4X)
  7
SLDTEXTSTYLE0
 73
     1
 44
1.0
  0
ENDBLK
  5
12C
330
12A
100
AcDbEntity
  8
0
100
AcDbBlockEnd
  0
ENDSEC
  0
SECTION
  2
ENTITIES
  0
INSERT
  5
DC
330
1F
100
AcDbEntity
  8
FORMAT
100
AcDbBlockReference
  2
SW_NOTE_2
 10
289.6573867653
 20
151.2921934123
 30
0.0
  0
LINE
  5
DD
330
1F
100
AcDbEntity
  8
FORMAT
100
AcDbLine
 10
534.4603043687
 20
366.7273218016
 30
0.0
 11
287.1603043687
 21
366.7273218016
 31
0.0
  0
LINE
  5
DE
330
1F
100
AcDbEntity
  8
FORMAT
100
AcDbLine
 10
541.8103043687
 20
188.9773218016
 30
0.0
 11
541.8103043687
 21
359.3773218016
 31
0.0
  0
LINE
  5
DF
330
1F
100
AcDbEntity
  8
FORMAT
100
AcDbLine
 10
287.1603043687
 20
181.6273218016
 30
0.0
 11
534.4603043687
 21
181.6273218016
 31
0.0
  0
LINE
  5
E0
330
1F
100
AcDbEntity
  8
FORMAT
100
AcDbLine
 10
279.8103043687
 20
359.3773218016
 30
0.0
 11
279.8103043687
 21
188.9773218016
 31
0.0
  0
LINE
  5
E1
330
1F
100
AcDbEntity
  8
FORMAT
  6
CENTER
100
AcDbLine
 10
278.7603043687
 20
174.8773218016
 30
0.0
 11
542.8603043687
 21
174.8773218016
 31
0.0
  0
LINE
  5
E2
330
1F
100
AcDbEntity
  8
FORMAT
  6
CENTER
100
AcDbLine
 10
548.5603043687
 20
180.5773218016
 30
0.0
 11
548.5603043687
 21
367.7773218016
 31
0.0
  0
LINE
  5
E3
330
1F
100
AcDbEntity
  8
FORMAT
  6
CENTER
100
AcDbLine
 10
542.8603043687
 20
373.4773218016
 30
0.0
 11
278.7603043687
 21
373.4773218016
 31
0.0
  0
LINE
  5
E4
330
1F
100
AcDbEntity
  8
FORMAT
  6
CENTER
100
AcDbLine
 10
273.0603043687
 20
367.7773218016
 30
0.0
 11
273.0603043687
 21
180.5773218016
 31
0.0
  0
CIRCLE
  5
E5
330
1F
100
AcDbEntity
  8
FORMAT
100
AcDbCircle
 10
542.7103043687
 20
180.7273218016
 30
0.0
 40
1.898650000000045
  0
ARC
  5
E6
330
1F
100
AcDbEntity
  8
FORMAT
100
AcDbCircle
 10
534.4603043687
 20
359.3773218016
 30
0.0
 40
7.350000000000023
100
AcDbArc
 50
0.0
 51
90.0
  0
ARC
  5
E7
330
1F
100
AcDbEntity
  8
FORMAT
100
AcDbCircle
 10
534.4603043687
 20
188.9773218016
 30
0.0
 40
7.349999999999966
100
AcDbArc
 50
270.0
 51
0.0
  0
ARC
  5
E8
330
1F
100
AcDbEntity
  8
FORMAT
100
AcDbCircle
 10
287.1603043687
 20
188.9773218016
 30
0.0
 40
7.350000000000023
100
AcDbArc
 50
180.0
 51
270.0
  0
ARC
  5
E9
330
1F
100
AcDbEntity
  8
FORMAT
100
AcDbCircle
 10
287.1603043687
 20
359.3773218016
 30
0.0
 40
7.350000000000023
100
AcDbArc
 50
90.0
 51
180.0
  0
CIRCLE
  5
EA
330
1F
100
AcDbEntity
  8
FORMAT
100
AcDbCircle
 10
278.9103043687
 20
180.7273218016
 30
0.0
 40
1.89864999999999
  0
CIRCLE
  5
EB
330
1F
100
AcDbEntity
  8
FORMAT
100
AcDbCircle
 10
278.9103043687
 20
367.6273218016
 30
0.0
 40
1.898650000000036
  0
CIRCLE
  5
EC
330
1F
100
AcDbEntity
  8
FORMAT
100
AcDbCircle
 10
542.7103043687
 20
367.6273218016
 30
0.0
 40
1.898649999999928
  0
ARC
  5
ED
330
1F
100
AcDbEntity
  8
FORMAT
  6
CENTER
100
AcDbCircle
 10
278.7603043687
 20
180.5773218016
 30
0.0
 40
5.699999999999989
100
AcDbArc
 50
180.0
 51
270.0
  0
ARC
  5
EE
330
1F
100
AcDbEntity
  8
FORMAT
  6
CENTER
100
AcDbCircle
 10
542.8603043687
 20
180.5773218016
 30
0.0
 40
5.700000000000045
100
AcDbArc
 50
270.0
 51
0.0
  0
ARC
  5
EF
330
1F
100
AcDbEntity
  8
FORMAT
  6
CENTER
100
AcDbCircle
 10
542.8603043687
 20
367.7773218016
 30
0.0
 40
5.700000000000045
100
AcDbArc
 50
0.0
 51
90.0
  0
ARC
  5
F0
330
1F
100
AcDbEntity
  8
FORMAT
  6
CENTER
100
AcDbCircle
 10
278.7603043687
 20
367.7773218016
 30
0.0
 40
5.699999999999989
100
AcDbArc
 50
90.0
 51
180.0
  0
DIMENSION
  5
F1
330
1F
100
AcDbEntity
  8
FORMAT
100
AcDbDimension
  2
_D
 10
468.4021773141
 20
181.6273218016
 30
0.0
 11
468.4021773141
 21
239.8455759222
 31
0.0
 70
   160
  1
<>
 71
     2
 42
-1.0
  3
SLDDIMSTYLE0
100
AcDbAlignedDimension
 13
534.4603043687
 23
366.7273218016
 33
0.0
 14
534.4603043687
 24
181.6273218016
 34
0.0
 50
90.0
100
AcDbRotatedDimension
  0
DIMENSION
  5
104
330
1F
100
AcDbEntity
  8
FORMAT
100
AcDbDimension
  2
_D_1
 10
279.8103043687
 20
216.6127499673
 30
0.0
 11
377.0812803912
 21
216.6127499673
 31
0.0
 70
   160
  1
<>
 71
     2
 42
-1.0
  3
SLDDIMSTYLE0
100
AcDbAlignedDimension
 13
541.8103043687
 23
188.9773218016
 33
0.0
 14
279.8103043687
 24
188.9773218016
 34
0.0
100
AcDbRotatedDimension
  0
DIMENSION
  5
116
330
1F
100
AcDbEntity
  8
FORMAT
100
AcDbDimension
  2
_D_2
 10
534.4603043687
 20
359.3773218016
 30
0.0
 11
573.0743271565
 21
370.5568958295
 31
0.0
 70
   164
  1
<> (4X)
 71
     1
 42
-1.0
  3
SLDDIMSTYLE1
100
AcDbRadialDimension
 15
541.2343867176
 25
362.229392686
 35
0.0
 40
0.0
  0
MTEXT
  5
127
330
1F
100
AcDbEntity
  8
FORMAT
100
AcDbMText
 10
571.0747863606
 20
309.5537519847
 30
0.0
 40
3.175
 41
0.0
 71
     1
 72
     1
  1
PANEL CUTOUT
  7
SLDTEXTSTYLE0
 73
     1
 44
1.0
  0
LEADER
  5
129
330
1F
100
AcDbEntity
  8
FORMAT
100
AcDbLeader
  3
SLDDIMSTYLE2
 76
     3
 10
541.8103043687
 20
288.6306592741
 30
0.0
 10
565.9750566893
 20
308.0498866213
 30
0.0
 10
570.4750566893
 20
308.0498866213
 30
0.0
  0
INSERT
  5
131
102
{ACAD_REACTORS
330
132
102
}
330
1F
100
AcDbEntity
  8
FORMAT
100
AcDbBlockReference
  2
SW_NOTE_3
 10
229.1836668433
 20
394.2176870748
 30
0.0
  0
LEADER
  5
132
330
1F
100
AcDbEntity
  8
FORMAT
100
AcDbLeader
  3
SLDDIMSTYLE2
 73
     2
 76
     3
 10
277.1816512984
 20
368.4125799663
 30
0.0
 10
233.6836668433
 20
394.2176870748
 30
0.0
 10
229.1836668433
 20
394.2176870748
 30
0.0
340
131
  0
ENDSEC
  0
SECTION
  2
OBJECTS
  0
DICTIONARY
  5
C
330
0
100
AcDbDictionary
281
     1
  3
ACAD_GROUP
350
D
  3
ACAD_LAYOUT
350
1A
  3
ACAD_MLINESTYLE
350
17
  3
ACAD_PLOTSETTINGS
350
19
  3
ACAD_PLOTSTYLENAME
350
E
  0
DICTIONARY
  5
D
102
{ACAD_REACTORS
330
C
102
}
330
C
100
AcDbDictionary
281
     1
  0
DICTIONARY
  5
1A
102
{ACAD_REACTORS
330
C
102
}
330
C
100
AcDbDictionary
281
     1
  3
Layout1
350
1E
  3
Layout2
350
26
  3
Model
350
22
  0
DICTIONARY
  5
17
102
{ACAD_REACTORS
330
C
102
}
330
C
100
AcDbDictionary
281
     1
  3
Standard
350
18
  0
DICTIONARY
  5
19
102
{ACAD_REACTORS
330
C
102
}
330
C
100
AcDbDictionary
281
     1
  0
ACDBDICTIONARYWDFLT
  5
E
102
{ACAD_REACTORS
330
C
102
}
330
C
100
AcDbDictionary
281
     1
  3
Normal
350
F
100
AcDbDictionaryWithDefault
340
F
  0
LAYOUT
  5
1E
102
{ACAD_REACTORS
330
1A
102
}
330
1A
100
AcDbPlotSettings
  1

  2
none_device
  4

  6

 40
0.0
 41
0.0
 42
0.0
 43
0.0
 44
0.0
 45
0.0
 46
0.0
 47
0.0
 48
0.0
 49
0.0
140
0.0
141
0.0
142
1.0
143
1.0
 70
   688
 72
     0
 73
     0
 74
     5
  7

 75
    16
147
1.0
148
0.0
149
0.0
100
AcDbLayout
  1
Layout1
 70
     1
 71
     1
 10
0.0
 20
0.0
 11
420.0
 21
297.0
 12
0.0
 22
0.0
 32
0.0
 14
1.0000000000E+20
 24
1.0000000000E+20
 34
1.0000000000E+20
 15
-1.0000000000E+20
 25
-1.0000000000E+20
 35
-1.0000000000E+20
146
0.0
 13
0.0
 23
0.0
 33
0.0
 16
1.0
 26
0.0
 36
0.0
 17
0.0
 27
1.0
 37
0.0
 76
     0
330
1B
  0
LAYOUT
  5
26
102
{ACAD_REACTORS
330
1A
102
}
330
1A
100
AcDbPlotSettings
  1

  2
none_device
  4

  6

 40
0.0
 41
0.0
 42
0.0
 43
0.0
 44
0.0
 45
0.0
 46
0.0
 47
0.0
 48
0.0
 49
0.0
140
0.0
141
0.0
142
1.0
143
1.0
 70
   688
 72
     0
 73
     0
 74
     5
  7

 75
    16
147
1.0
148
0.0
149
0.0
100
AcDbLayout
  1
Layout2
 70
     1
 71
     2
 10
0.0
 20
0.0
 11
0.0
 21
0.0
 12
0.0
 22
0.0
 32
0.0
 14
0.0
 24
0.0
 34
0.0
 15
0.0
 25
0.0
 35
0.0
146
0.0
 13
0.0
 23
0.0
 33
0.0
 16
1.0
 26
0.0
 36
0.0
 17
0.0
 27
1.0
 37
0.0
 76
     0
330
23
  0
LAYOUT
  5
22
102
{ACAD_REACTORS
330
1A
102
}
330
1A
100
AcDbPlotSettings
  1

  2
none_device
  4

  6

 40
0.0
 41
0.0
 42
0.0
 43
0.0
 44
0.0
 45
0.0
 46
0.0
 47
0.0
 48
0.0
 49
0.0
140
0.0
141
0.0
142
1.0
143
1.0
 70
  1712
 72
     0
 73
     0
 74
     0
  7

 75
     0
147
1.0
148
0.0
149
0.0
100
AcDbLayout
  1
Model
 70
     1
 71
     0
 10
0.0
 20
0.0
 11
863.6
 21
558.8
 12
0.0
 22
0.0
 32
0.0
 14
0.0
 24
0.0
 34
0.0
 15
863.6
 25
558.8
 35
0.0
146
0.0
 13
0.0
 23
0.0
 33
0.0
 16
1.0
 26
0.0
 36
0.0
 17
0.0
 27
1.0
 37
0.0
 76
     0
330
1F
331
29
  0
MLINESTYLE
  5
18
102
{ACAD_REACTORS
330
17
102
}
330
17
100
AcDbMlineStyle
  2
Standard
 70
     0
  3

 62
   256
 51
90.0
 52
90.0
 71
     2
 49
0.5
 62
   256
  6
BYLAYER
 49
-0.5
 62
   256
  6
BYLAYER
  0
ACDBPLACEHOLDER
  5
F
102
{ACAD_REACTORS
330
E
102
}
330
E
  0
ENDSEC
  0
EOF
